Login
Username:
Password:
Remember Me:
[Signup]
[Recover Account]
Friends
BTScene
Friendly site

Free Courses Online
Friendly site

Anime RG
Friendly site

KaranPC
Friendly site

P2PDL.com
Friendly site

Free Tutorials & Courses
Friendly site
Torrent Details For "Satyameva Jayate 2018 Hindi PRE-DVDRip x264 AAC { TaRa } mkv"

Satyameva Jayate 2018 Hindi PRE-DVDRip x264 AAC { TaRa } mkv

To download this torrent, you need a BitTorrent client: Vuze or BTGuard
Download this torrent
Download using Magnet Link





Health:
Seeds: 430
Leechers: 229
Completed: 2,041 
Last Checked: 16-08-2018 18:40:59

Uploader Reputation points : 360
External: Torrent



BTGuard - BitTorrent Anonymously


Write a Review for the Uploader:   0   Say Thanks with one good review:


Details
Name:Satyameva Jayate 2018 Hindi PRE-DVDRip x264 AAC { TaRa } mkv
Description:

Satyameva Jayate 2018 Hindi PRE-DVDRip x264 AAC { TaRa }.mkv


===================================================================
General
Complete name               : Satyameva Jayate 2018 Hindi PRE-DVDRip x264 AAC { TaRa }.mkv
Format                      : Matroska
Format version              : Version 4 / Version 2
File size                   : 695 MiB
Duration                    : 2h 15mn
Overall bit rate            : 720 Kbps
===================================================================
Video
ID                          : 1
Format                      : AVC
Format/Info                 : Advanced Video Codec
Format profile              : [email protected]
Format settings, CABAC      : Yes
Format settings, ReFrames   : 4 frames
Codec ID                    : V_MPEG4/ISO/AVC
Duration                    : 2h 15mn
Bit rate                    : 587 Kbps
Width                       : 688 pixels
Height                      : 300 pixels
Display aspect ratio        : 2.25:1
Frame rate mode             : Constant
Frame rate                  : 25.000 fps
Color space                 : YUV
Chroma subsampling          : 4:2:0
Bit depth                   : 8 bits
Scan type                   : Progressive
Bits/(Pixel*Frame)          : 0.114
Stream size                 : 572 MiB (82%)
Title                       : .....:::::: TaRa ::::::.....
Language                    : Hindi
Default                     : Yes
Forced                      : No
===================================================================
Audio
ID                          : 2
Format                      : AAC
Format/Info                 : Advanced Audio Codec
Format profile              : LC
Codec ID                    : A_AAC
Duration                    : 2h 15mn
Bit rate                    : 126 Kbps
Channel(s)                  : 2 channels
Channel positions           : Front: L R
Sampling rate               : 44.1 KHz
Frame rate                  : 43.066 fps (1024 spf)
Compression mode            : Lossy
Delay relative to video     : -80ms
Stream size                 : 121 MiB (17%)
Title                       : .....:::::: TaRa ::::::.....
Language                    : Hindi
Default                     : Yes
Forced                      : No
===================================================================

































YouTube Video:
Category:Movies
Language:Hindi  Hindi
Total Size:695.76 MB
Info Hash:0D8CA322CDCED113FA018136331CE52AC30ADD1D
Added By:SkTaRa Verified UploaderMovie Pirate
Date Added:15-08-2018 19:32:14
Torrent Status:Torrent Verified


Ratings:Not Yet Rated (Log in to rate it)

  


Tracker:
udp://tracker.coppersurfer.tk:6969/announce

This Torrent also has backup trackers
URLSeedersLeechersCompleted
udp://tracker.coppersurfer.tk:6969/announce5032314
udp://tracker.trackerfix.com:80/announce000
udp://shadowshq.yi.org:6969/announce5932254
udp://eddie4.nl:6969/announce5932254
udp://tracker.leechers-paradise.org:6969/announce5932254
udp://tracker.opentrackr.org:1337/announce3820199
udp://p4p.arenabg.ch:1337/announce000
udp://p4p.arenabg.com:1337/announce000
udp://tracker.zer0day.to:1337/announce000
udp://9.rarbg.to:2740/announce257141
udp://tracker.coppersurfer.tk:80/announce5032314
udp://tracker.vanitycore.co:6969/announce231058
udp://public.popcorn-tracker.org:6969/announce201054
udp://tracker.opentrackr.org:1337/announce3820199
http://t.nyaatracker.com:80/announce920
http://220xd.site/t/announce000


File List: 



Warning! Do not Download Torrents Without a VPN!
Your IP Address is .   Location is
Your Internet Provider and Government can track your torrent Activity! Hide your IP ADDRESS with a VPN!
We strongly recommend using SpyOFF VPN to anonymize your Torrenting.It's FREE!
START YOUR FREE TRIAL NOW!


Comments
No comments still posted